Code M Season 1 Complete Ep 1 - 8 720p WEB-DL H264 AltBalaji - By...

seeders: 8
leechers: 18
updated:
Added by Mansimran in Other


ᕦ( ▨̅ ͜▨̅ )ᕥ SPECIAL DEAL - OFFER ᕦ( ▨̅ ͜▨̅ )ᕥ
strongly advises you to use Nord while downloading torrents.
Nord is the safest on the market, and the fastest as well.
No IP Log is saved using Nord, avoid other providers and choose the safest one.
Click here and buy Nord it's on rebates today!
We were able to verify your IP: 35.168.111.191, country: United States and you are near by: Ashburn.
If we can do that, others can too, protect your privacy with Nord.
is trying the best for you!
ᕦ( ▨̅ ͜▨̅ )ᕥ SPECIAL DEAL - OFFER ᕦ( ▨̅ ͜▨̅ )ᕥ


Description

Quote:Code M Season 1 Complete Ep 1 - 8 720p WEB-DL H264 AltBalaji - By Movieaio  

 

Telegram - Movieaio  

 

 
 

Quote:Poster :  
 
 

Quote:Screenshots :
 
 
 
 
 
 
 
 
 
 
 

Thanks for the download

Dont Forget to seed As much you Download

- Movieaio  

Code:General
Complete name                            : [Telegram - Movieaio] Code M S01E01 720p WEB-DL H264.mkv
Format                                   : Matroska
Format version                           : Version 4
File size                                : 314 MiB
Duration                                 : 26 min 11 s
Overall bit rate                         : 1 678 kb/s
Movie name                               : Telegram - Movieaio
Writing application                      : Lavf58.29.100
Writing library                          : Lavf58.29.100
ErrorDetectionType                       : Per level 1

Video
ID                                       : 1
Format                                   : AVC
Format/Info                              : Advanced Video Codec
Format profile                           : [email protected] 
Format settings                          : CABAC / 4 Ref Frames
Format settings, CABAC                   : Yes
Format settings, Reference frames        : 4 frames
Codec ID                                 : V_MPEG4/ISO/AVC
Duration                                 : 26 min 11 s
Bit rate                                 : 3 920 kb/s
Nominal bit rate                         : 1 565 kb/s
Width                                    : 1 274 pixels
Height                                   : 720 pixels
Display aspect ratio                     : 16:9
Frame rate mode                          : Variable
Frame rate                               : 24.972 FPS
Color space                              : YUV
Chroma subsampling                       : 4:2:0
Bit depth                                : 8 bits
Scan type                                : Progressive
Bits/(Pixel*Frame)                       : 0.171
Stream size                              : 734 MiB
Title                                    : Telegram - Movieaio
Writing library                          : x264 core 157
Default                                  : Yes
Forced                                   : No

Audio
ID                                       : 2
Format                                   : AAC LC
Format/Info                              : Advanced Audio Codec Low Complexity
Codec ID                                 : A_AAC-2
Duration                                 : 26 min 10 s
Bit rate                                 : 96.0 kb/s
Channel(s)                               : 2 channels
Channel layout                           : L R
Sampling rate                            : 44.1 kHz
Frame rate                               : 43.066 FPS (1024 SPF)
Compression mode                         : Lossy
Stream size                              : 18.0 MiB (6%)
Title                                    : Telegram - Movieaio
Writing library                          : Lavc58.54.100 libfdk_aac
Default                                  : Yes
Forced                                   : No
 

Sharing Widget


Download torrent
Size: 2.6 GB
seeders:8
leechers:18
Code M Season 1 Complete Ep 1 - 8 720p WEB-DL H264 AltBalaji - By... - (2791728742 Bytes)



To share this torrent use the code below and insert it into comments, status messages, forum posts or your signature.

Torrent: Code M Season 1 Complete Ep 1 - 8 720p WEB-DL H264 AltBalaji - By...

Trackers

tracker name
udp://tracker.opentrackr.org:1337/announce
udp://p4p.arenabg.com:1337/announce
udp://denis.stalker.upeer.me:6969/announce
https://tracker.vectahosting.eu:2053/announce
udp://tracker.sbsub.com:2710/announce
https://tracker.opentracker.se:443/announce
https://tracker.no-dmca.ninja:2087/announce
https://tracker.fr.eu.org:8443/announce
https://tracker.heaterdown.eu:443/announce
https://tracker.sloppyta.co:443/announce
udp://open.stealth.si:80/announce
udp://ipv4.tracker.harry.lu:80/announce
udp://tracker.torrent.eu.org:451/announce
udp://tracker.uw0.xyz:6969/announce
udp://tracker.zer0day.to:1337/announce
udp://tracker.leechers-paradise.org:6969/announce
udp://coppersurfer.tk:6969/announce
µTorrent compatible trackers list

Locations

name
KickassTorrents
Torrent hash: 21EE29F5EC36CF65824970F3716AD9081477B7E0

ᕦ( ▨̅ ͜▨̅ )ᕥ SPECIAL DEAL - OFFER ᕦ( ▨̅ ͜▨̅ )ᕥ
strongly advises you to use Nord while downloading torrents.
Nord is the safest on the market, and the fastest as well.
No IP Log is saved using Nord, avoid other providers and choose the safest one.
Click here and buy Nord it's on rebates today!
We were able to verify your IP: 35.168.111.191, country: United States and you are near by: Ashburn.
If we can do that, others can too, protect your privacy with Nord.
is trying the best for you!
ᕦ( ▨̅ ͜▨̅ )ᕥ SPECIAL DEAL - OFFER ᕦ( ▨̅ ͜▨̅ )ᕥ


All Comments

*comments box temporarily disabled*
Report a bug